Now You See Me 2013 720p BrRip x265 HEVCBay torrent download

seeders: 453
leechers: 142
updated:
Added ago by g3m696 ***** in Movies
Torrent Downloaded 10 times.
Info Hash: 32C681B42E2C8A7F8C540A3D4A4A9D8147E9AFB9


Torrent Files

Now You See Me 2013 720p BrRip x265 HEVCBay (Size: 583.9 MB)
  Now You See Me 2013 720p BrRip x265 HEVCBay 583.9 MB

Torrent Description



hevcbay.com

Code:

General
Unique ID : 67697180450317390136821161572150129498 (0x32EE00B0D0AE637FB50D1A6AA515B35A)
Complete name : Now.You.See.Me.2013.720p.BrRip.x265.HEVCBay.com.mkv
Format : Matroska
Format version : Version 4
File size : 584 MiB
Duration : 2 h 4 min
Overall bit rate : 654 kb/s
Movie name : Now.You.See.Me.2013.720p.BrRip.x265.HEVCBay.com.mkv
Encoded date : UTC 2019-02-11 00:41:19
Writing application : hevcbay
Writing library : hevcbay.com / Lavf58.22.100
Comment : Encoded by hevcbay.com
ENCODED-BY : hevcbay.com

Video
ID : 1
Format : HEVC
Format/Info : High Efficiency Video Coding
Format profile : [email protected]@Main
Codec ID : V_MPEGH/ISO/HEVC
Duration : 2 h 4 min
Bit rate : 601 kb/s
Width : 1 280 pixels
Height : 534 pixels
Display aspect ratio : 2.40:1
Original display aspect ratio : 2.40:1
Frame rate mode : Constant
Frame rate : 23.976 FPS
Color space : YUV
Chroma subsampling : 4:2:0
Bit depth : 8 bits
Bits/(Pixel*Frame) : 0.037
Stream size : 537 MiB (92%)
Writing library : Lavc58.40.100 libx265
Language : English
Default : Yes
Forced : No
Color range : Limited

Audio
ID : 2
Format : AAC LC SBR PS
Format/Info : Advanced Audio Codec Low Complexity with Spectral Band Replication and Parametric Stereo
Commercial name : HE-AACv2
Format settings : NBC
Codec ID : A_AAC-29
Duration : 2 h 4 min
Bit rate : 51.0 kb/s
Channel(s) : 2 channels
Channel layout : C
Sampling rate : 48.0 kHz
Frame rate : 23.438 FPS (2048 SPF)
Compression mode : Lossy
Delay relative to video : -148 ms
Stream size : 45.5 MiB (8%)
Writing library : Lavc58.40.100 libfdk_aac
Language : English
Default : Yes
Forced : No

Text
ID : 3
Format : UTF-8
Codec ID : S_TEXT/UTF8
Codec ID/Info : UTF-8 Plain Text
Duration : 1 h 56 min
Bit rate : 76 b/s
Count of elements : 2075
Stream size : 64.9 KiB (0%)
Title : English
Language : English
Default : No
Forced : No









Related Torrents

torrent name size age seed leech
881.8 MB 34 seconds 264 175
410.2 MB 34 seconds 538 42
225.31 MB 8 minutes 137 438
847.87 MB 8 minutes 706 27
115.01 MB 8 minutes 331 186

Sharing Widget


Download torrent
583.9 MB
seeders:1214
leechers:386
Now You See Me 2013 720p BrRip x265 HEVCBay



To share this torrent use the code below and insert it into comments, status messages, forum posts or your signature.

Torrent: Now You See Me 2013 720p BrRip x265 HEVCBay

Comments

Latest Searches