Prospect 2019 HDRip XviD AC3 LLG torrent download

seeders: 175
leechers: 30
updated:
Added ago by LifeLongg ***** in Movies
Torrent Downloaded 10 times.
Info Hash: 5CF2F1D98738057B496E6B9E93A9B3B2094C218B


Torrent Files

Prospect 2019 HDRip XviD AC3 LLG (Size: 1.1 GB)
  Prospect 2019 HDRip XviD AC3 LLG 1.1 GB

Torrent Description



Quote:




******************************Thumbnail:**********************



******************************Screenshots:********************

Screenshot 1

Screenshot 2

Screenshot 3

Screenshot 4

Screenshot 5

Screenshot 6

Screenshot 7

Screenshot 8

Screenshot 9

Screenshot 0


******************************************************

Prospect.2019.HDRip.XviD.AC3.LLG.mp4
Format : MPEG-4
Format profile : Base Media
Codec ID : isom (isom/iso2/avc1/mp41)
File size : 1.11 GiB
Duration : 1 h 39 min
Overall bit rate mode : Variable
Overall bit rate : 1 597 kb/s


Video
ID : 1
Format : AVC
Format/Info : Advanced Video Codec
Format profile : [email protected]
Format settings : CABAC / 1 Ref Frames
Format settings, CABAC : Yes
Format settings, RefFrames : 1 frame
Codec ID : avc1
Codec ID/Info : Advanced Video Coding
Duration : 1 h 39 min
Bit rate mode : Variable
Bit rate : 1 209 kb/s
Maximum bit rate : 3 600 kb/s
Width : 720 pixels
Height : 384 pixels
Display aspect ratio : 1.85:1
Frame rate mode : Constant
Frame rate : 24.000 FPS
Color space : YUV
Chroma subsampling : 4:2:0
Bit depth : 8 bits
Scan type : Progressive
Bits/(Pixel*Frame) : 0.182
Stream size : 863 MiB (76%)


Audio
ID : 2
Format : AC-3
Format/Info : Audio Coding 3
Commercial name : Dolby Digital
Codec ID : ac-3
Duration : 1 h 39 min
Bit rate mode : Constant
Bit rate : 384 kb/s
Channel(s) : 6 channels
Channel layout : L R C LFE Ls Rs
Sampling rate : 48.0 kHz
Frame rate : 31.250 FPS (1536 SPF)
Bit depth : 16 bits
Compression mode : Lossy
Stream size : 274 MiB (24%)
Title : Surround
Language : English
Service kind : Complete Main
Default : Yes
Alternate group : 1



********************************************************




Related Torrents

torrent name size age seed leech
930.6 MB 4 minutes 131 239
120.3 MB 4 minutes 290 200
93.4 MB 4 minutes 456 111
2.0 GB 9 minutes 513 454
802.18 MB 11 minutes 191 86

Sharing Widget


Download torrent
1.1 GB
seeders:1214
leechers:386
Prospect 2019 HDRip XviD AC3 LLG



To share this torrent use the code below and insert it into comments, status messages, forum posts or your signature.

Torrent: Prospect 2019 HDRip XviD AC3 LLG

Comments

Latest Searches