The Mortal Instruments City of Bones 2013 720p BrRip x265 HEVCBay torrent download

seeders: 459
leechers: 225
updated:
Added ago by g3m696 ***** in Movies
Torrent Downloaded 10 times.
Info Hash: C99AA9684E2A18ADCF52A75EEC3551CEF8B44CBA


Torrent Files

The Mortal Instruments City of Bones 2013 720p BrRip x265 HEVCBay (Size: 461.1 MB)
  The Mortal Instruments City of Bones 2013 720p BrRip x265 HEVCBay 461.1 MB

Torrent Description



hevcbay.com

Code:

General
Unique ID : 12740694523389954436622935516459915462 (0x995C4BD09B0B51E5494D21B142158C6)
Complete name : The.Mortal.Instruments.City.of.Bones.2013.720p.BrRip.x265.HEVCBay.com.mkv
Format : Matroska
Format version : Version 4
File size : 461 MiB
Duration : 2 h 10 min
Overall bit rate : 495 kb/s
Movie name : The.Mortal.Instruments.City.of.Bones.2013.720p.BrRip.x265.HEVCBay.com.mkv
Encoded date : UTC 2019-02-11 00:15:50
Writing application : hevcbay
Writing library : hevcbay.com / Lavf58.22.100
Comment : Encoded by hevcbay.com
ENCODED-BY : hevcbay.com

Video
ID : 1
Format : HEVC
Format/Info : High Efficiency Video Coding
Format profile : [email protected]@Main
Codec ID : V_MPEGH/ISO/HEVC
Duration : 2 h 10 min
Bit rate : 444 kb/s
Width : 1 280 pixels
Height : 534 pixels
Display aspect ratio : 2.40:1
Original display aspect ratio : 2.40:1
Frame rate mode : Constant
Frame rate : 23.976 FPS
Color space : YUV
Chroma subsampling : 4:2:0
Bit depth : 8 bits
Bits/(Pixel*Frame) : 0.027
Stream size : 413 MiB (90%)
Writing library : Lavc58.42.102 libx265
Language : English
Default : Yes
Forced : No
Color range : Limited

Audio
ID : 2
Format : AAC LC SBR PS
Format/Info : Advanced Audio Codec Low Complexity with Spectral Band Replication and Parametric Stereo
Commercial name : HE-AACv2
Format settings : NBC
Codec ID : A_AAC-29
Duration : 2 h 10 min
Bit rate : 48.0 kb/s
Channel(s) : 2 channels
Channel layout : C
Sampling rate : 48.0 kHz
Frame rate : 23.438 FPS (2048 SPF)
Compression mode : Lossy
Delay relative to video : -148 ms
Stream size : 46.1 MiB (10%)
Writing library : Lavc58.42.102 libfdk_aac
Language : English
Default : Yes
Forced : No

Text #1
ID : 3
Format : UTF-8
Codec ID : S_TEXT/UTF8
Codec ID/Info : UTF-8 Plain Text
Duration : 2 h 1 min
Bit rate : 41 b/s
Count of elements : 1284
Stream size : 37.3 KiB (0%)
Title : English
Language : English
Default : No
Forced : No

Text #2
ID : 4
Format : UTF-8
Codec ID : S_TEXT/UTF8
Codec ID/Info : UTF-8 Plain Text
Duration : 3 s 337 ms
Bit rate : 95 b/s
Count of elements : 1
Stream size : 40.0 Bytes (0%)
Title : English
Language : English
Default : Yes
Forced : Yes








Related Torrents

torrent name size age seed leech
881.8 MB 1 minute 575 299
410.2 MB 1 minute 98 78
225.31 MB 9 minutes 592 383
847.87 MB 9 minutes 109 142
115.01 MB 9 minutes 455 298

Sharing Widget


Download torrent
461.1 MB
seeders:1214
leechers:386
The Mortal Instruments City of Bones 2013 720p BrRip x265 HEVCBay



To share this torrent use the code below and insert it into comments, status messages, forum posts or your signature.

Torrent: The Mortal Instruments City of Bones 2013 720p BrRip x265 HEVCBay

Comments

Latest Searches