The Walking Dead S09E09 Adaptation 1080p 5 1 2 0 x264 Phun Psyz torrent download

seeders: 468
leechers: 396
updated:
Added ago by PhunPsyz ***** in TV
Torrent Downloaded 10 times.
Info Hash: 65EA4716BD8380E7C2327AD58D5C949282974BDF


Torrent Files

The Walking Dead S09E09 Adaptation 1080p 5 1 - 2 0 x264 Phun Psyz (Size: 948.2 MB)
  The Walking Dead S09E09 Adaptation 1080p 5 1 - 2 0 x264 Phun Psyz 948.2 MB

Torrent Description



www.imdb.com/title/tt8250826/?ref_=ttep_ep9

The group unmasks a disturbing and dangerous new threat. An escaped captive revisits his past.

Source: CasStudio (Amzn)







Format : MPEG-4
Format profile : Base Media / Version 2
Codec ID : mp42 (isom/iso2/avc1/mp41)
File size : 948 MiB
Duration : 51 min 10 s
Overall bit rate mode : Variable
Overall bit rate : 2 590 kb/s
Writing application : HandBrake 1.2.0 2018121700

Video
ID : 1
Format : AVC
Format/Info : Advanced Video Codec
Format profile : [email protected]
Format settings : CABAC / 1 Ref Frames
Format settings, CABAC : Yes
Format settings, ReFrames : 1 frame
Codec ID : avc1
Codec ID/Info : Advanced Video Coding
Duration : 51 min 10 s
Bit rate : 2 102 kb/s
Width : 1 920 pixels
Height : 1 080 pixels
Display aspect ratio : 16:9
Frame rate : 23.976 (24000/1001) FPS
Color space : YUV
Chroma subsampling : 4:2:0
Bit depth : 8 bits
Scan type : Progressive
Bits/(Pixel*Frame) : 0.042
Stream size : 770 MiB (81%)
Writing library : x264 core 157 r2935 545de2f

Audio #1
ID : 2
Format : AC-3
Format/Info : Audio Coding 3
Commercial name : Dolby Digital
Codec ID : ac-3
Duration : 51 min 10 s
Bit rate mode : Constant
Bit rate : 320 kb/s
Channel(s) : 6 channels
Channel layout : L R C LFE Ls Rs
Sampling rate : 48.0 kHz
Frame rate : 31.250 FPS (1536 SPF)
Bit depth : 16 bits
Compression mode : Lossy
Stream size : 117 MiB (12%)
Title : Surround
Language : English

Audio #2
ID : 3
Format : AAC LC
Format/Info : Advanced Audio Codec Low Complexity
Codec ID : mp4a-40-2
Duration : 51 min 10 s
Bit rate mode : Constant
Bit rate : 160 kb/s
Channel(s) : 2 channels
Channel layout : L R
Sampling rate : 48.0 kHz
Frame rate : 46.875 FPS (1024 SPF)
Compression mode : Lossy
Stream size : 58.6 MiB (6%)
Title : Stereo
Language : English

Text
Language : English
Default : Yes
Forced : No
Language : English
Default : No
Forced : No



Related Torrents

torrent name size age seed leech
1.0 GB 7 minutes 4 236
120.2 MB 15 minutes 446 216
1.5 GB 19 minutes 356 41
768.9 MB 19 minutes 642 482
187.4 MB 23 minutes 565 493

Sharing Widget


Download torrent
948.2 MB
seeders:1214
leechers:386
The Walking Dead S09E09 Adaptation 1080p 5 1 - 2 0 x264 Phun Psyz



To share this torrent use the code below and insert it into comments, status messages, forum posts or your signature.

Torrent: The Walking Dead S09E09 Adaptation 1080p 5 1 - 2 0 x264 Phun Psyz

Comments

Latest Searches