Way Out West 1937 1080p BDrip x265 AAC 2 0 D0ct0rLew[SEV] torrent download

seeders: 235
leechers: 270
updated:
Added ago by D0ct0rLew ***** in Movies
Torrent Downloaded 10 times.
Info Hash: 6AAE1DC9C7741D8CF98FBB7163BDBE96B2F11190


Torrent Files

Way Out West 1937 1080p BDrip x265 AAC 2 0 D0ct0rLew[SEV] (Size: 7.1 GB)
  Way Out West 1937 1080p BDrip x265 AAC 2 0 D0ct0rLew[SEV] 7.1 GB

Torrent Description





Screenshots


Source


Encode


Media Information



Unique ID : 36247610918154291128761220622476816566 (0x1B450932936EAE30CB0F864C8A4EB0B6)
Complete name : Way Out West 1937 1080p BDrip x265 AAC 2.0 D0ct0rLew[SEV].mkv
Format : Matroska
Format version : Version 4
File size : 7.07 GiB
Duration : 1 h 2 min
Overall bit rate : 16.1 Mb/s
Movie name : Way Out West (1937)
Encoded date : UTC 2019-02-10 13:00:10
Writing application : mkvmerge v29.0.0 ('Like It Or Not') 64-bit
Writing library : libebml v1.3.6 + libmatroska v1.4.9

Video
ID : 3
Format : HEVC
Format/Info : High Efficiency Video Coding
Format profile : Main [email protected]@Main
Codec ID : V_MPEGH/ISO/HEVC
Duration : 1 h 2 min
Bit rate : 15.9 Mb/s
Width : 1 920 pixels
Height : 1 080 pixels
Display aspect ratio : 16:9
Frame rate mode : Constant
Frame rate : 25.000 FPS
Color space : YUV
Chroma subsampling : 4:2:0
Bit depth : 10 bits
Bits/(Pixel*Frame) : 0.307
Stream size : 6.98 GiB (99%)
Writing library : x265 3.0_RC+4-8aebc58efe5c:[Windows][MSVC 1920][64 bit] 10bit
Encoding settings : cpuid=1111039 / frame-threads=3 / numa-pools=8 / wpp / no-pmode / no-pme / no-psnr / no-ssim / log-level=2 / input-csp=1 / input-res=1920x1080 / interlace=0 / total-frames=94320 / level-idc=0 / high-tier=1 / uhd-bd=0 / ref=5 / no-allow-non-conformance / no-repeat-headers / annexb / no-aud / no-hrd / info / hash=0 / no-temporal-layers / open-gop / min-keyint=25 / keyint=250 / gop-lookahead=0 / bframes=8 / b-adapt=2 / b-pyramid / bframe-bias=0 / rc-lookahead=90 / lookahead-slices=4 / scenecut=40 / radl=0 / no-splice / no-intra-refresh / ctu=64 / min-cu-size=8 / no-rect / no-amp / max-tu-size=32 / tu-inter-depth=2 / tu-intra-depth=2 / limit-tu=4 / rdoq-level=2 / dynamic-rd=0.00 / no-ssim-rd / signhide / no-tskip / nr-intra=0 / nr-inter=0 / no-constrained-intra / no-strong-intra-smoothing / max-merge=4 / limit-refs=1 / limit-modes / me=3 / subme=7 / merange=92 / temporal-mvp / weightp / weightb / no-analyze-src-pics / deblock=3:3 / sao / no-sao-non-deblock / rd=6 / no-early-skip / rskip / no-fast-intra / no-tskip-fast / no-cu-lossless / b-intra / no-splitrd-skip / rdpenalty=0 / psy-rd=1.10 / psy-rdoq=1.00 / no-rd-refine / no-lossless / cbqpoffs=0 / crqpoffs=0 / rc=crf / crf=19.2 / qcomp=0.59 / qpstep=4 / stats-write=0 / stats-read=0 / ipratio=1.40 / pbratio=1.30 / aq-mode=3 / aq-strength=1.10 / cutree / zone-count=0 / no-strict-cbr / qg-size=32 / no-rc-grain / qpmax=69 / qpmin=0 / no-const-vbv / sar=0 / overscan=0 / videoformat=5 / range=0 / colorprim=2 / transfer=2 / colormatrix=2 / chromaloc=0 / display-window=0 / max-cll=0,0 / min-luma=0 / max-luma=1023 / log2-max-poc-lsb=8 / vui-timing-info / vui-hrd-info / slices=1 / no-opt-qp-pps / no-opt-ref-list-length-pps / no-multi-pass-opt-rps / scenecut-bias=0.05 / no-opt-cu-delta-qp / no-aq-motion / no-hdr / no-hdr-opt / no-dhdr10-opt / no-idr-recovery-sei / analysis-reuse-level=5 / scale-factor=0 / refine-intra=0 / refine-inter=0 / refine-mv=0 / refine-ctu-distortion=0 / no-limit-sao / ctu-info=0 / no-lowpass-dct / refine-analysis-type=0 / copy-pic=1 / max-ausize-factor=1.0 / no-dynamic-refine / no-single-sei / no-hevc-aq / qp-adaptation-range=1.00
Default : Yes
Forced : No

Audio
ID : 2
Format : AAC LC
Format/Info : Advanced Audio Codec Low Complexity
Codec ID : A_AAC-2
Duration : 1 h 2 min
Bit rate : 192 kb/s
Channel(s) : 2 channels
Channel layout : L R
Sampling rate : 48.0 kHz
Frame rate : 46.875 FPS (1024 SPF)
Compression mode : Lossy
Delay relative to video : 9 ms
Stream size : 86.4 MiB (1%)
Language : English
Default : Yes
Forced : No

Text
ID : 1
Format : UTF-8
Codec ID : S_TEXT/UTF8
Codec ID/Info : UTF-8 Plain Text
Duration : 1 h 2 min
Bit rate : 49 b/s
Count of elements : 712
Stream size : 22.6 KiB (0%)
Language : English
Default : Yes
Forced : No

Menu
00:00:00.000 : en:Chapter 1
00:10:12.320 : en:Chapter 2
00:18:55.280 : en:Chapter 3
00:30:42.240 : en:Chapter 4
00:39:46.000 : en:Chapter 5
00:52:57.200 : en:Chapter 6

Source Media Information



Unique ID : 61233134768822019859731021173370914200 (0x2E1112A1F8D84B8896DE13A6FA7C0598)
Complete name : Way.Out.West.1937.1080i.BluRay.REMUX.AVC.DTS-HD.MA.2.0-EPSiLON.mkv
Format : Matroska
Format version : Version 4
File size : 13.8 GiB
Duration : 1 h 2 min
Overall bit rate mode : Variable
Overall bit rate : 31.5 Mb/s
Movie name : Way Out West (1937)
Encoded date : UTC 2019-01-08 00:13:51
Writing application : mkvmerge v30.1.0 ('Forever And More') 64-bit
Writing library : libebml v1.3.6 + libmatroska v1.4.9
IMDB : tt0029747
TMDB : movie/25599

Video
ID : 1
Format : AVC
Format/Info : Advanced Video Codec
Format profile : [email protected]
Format settings : CABAC / 4 Ref Frames
Format settings, CABAC : Yes
Format settings, RefFrames : 4 frames
Codec ID : V_MPEG4/ISO/AVC
Duration : 1 h 2 min
Bit rate mode : Variable
Bit rate : 29.9 Mb/s
Maximum bit rate : 33.0 Mb/s
Width : 1 920 pixels
Height : 1 080 pixels
Display aspect ratio : 16:9
Frame rate mode : Constant
Frame rate : 25.000 FPS
Color space : YUV
Chroma subsampling : 4:2:0
Bit depth : 8 bits
Scan type : MBAFF
Scan type, store method : Interleaved fields
Scan order : Top Field First
Bits/(Pixel*Frame) : 0.577
Stream size : 13.1 GiB (95%)
Title : MPEG-4 AVC Video / 29996 kbps / 1080i / 25 fps / 16:9 / High Profile 4.1
Language : English
Default : Yes
Forced : No

Audio
ID : 2
Format : DTS XLL
Format/Info : Digital Theater Systems
Commercial name : DTS-HD Master Audio
Codec ID : A_DTS
Duration : 1 h 2 min
Bit rate mode : Variable
Bit rate : 1 559 kb/s
Channel(s) : 2 channels
Channel layout : L R
Sampling rate : 48.0 kHz
Frame rate : 93.750 FPS (512 SPF)
Bit depth : 24 bits
Compression mode : Lossless
Stream size : 701 MiB (5%)
Title : DTS-HD Master Audio / 2.0 / 48 kHz / 1559 kbps / 24-bit
Language : English
Default : Yes
Forced : No

Text
ID : 3
Format : PGS
Codec ID : S_HDMV/PGS
Codec ID/Info : Picture based subtitle format used on BDs/HD-DVDs
Duration : 1 h 2 min
Bit rate : 31.2 kb/s
Count of elements : 1430
Stream size : 13.9 MiB (0%)
Title : SDH
Language : English
Default : No
Forced : No

Menu
00:00:00.000 : en:Chapter 1
00:10:12.320 : en:Chapter 2
00:18:55.280 : en:Chapter 3
00:30:42.240 : en:Chapter 4
00:39:46.000 : en:Chapter 5
00:52:57.200 : en:Chapter 6


We have no issue with individuals posting or re-uploading our torrents on a platform we aren't on. However, if this is something you'd like to do, please do so in a 'as-is' format. We ask that you do not create a new torrent, include all descriptions you see above including the SEV logo, tags, notes and screenshots. If you'd like to become a permanent poster on a website we don't post to, feel free to get in contact with a Sublime Encoded Video member.



We are recruiting/training new members for SEV & seedbox providers as well as people to help out with subtitles.
As you already know, we deliver quality, so you know the standard.
If you're interested, feel free to contact any of the team members.




Related Torrents

torrent name size age seed leech
277.3 MB 5 minutes 789 327
891.2 MB 8 minutes 719 377
770.8 MB 8 minutes 36 209
215.6 MB 8 minutes 574 389
2.1 GB 8 minutes 209 226

Sharing Widget


Download torrent
7.1 GB
seeders:1214
leechers:386
Way Out West 1937 1080p BDrip x265 AAC 2 0 D0ct0rLew[SEV]



To share this torrent use the code below and insert it into comments, status messages, forum posts or your signature.

Torrent: Way Out West 1937 1080p BDrip x265 AAC 2 0 D0ct0rLew[SEV]

Comments

Latest Searches